#TITLE:I Need You;
#SUBTITLE:;
#ARTIST:麻吉弟弟;
#TITLETRANSLIT:;
#SUBTITLETRANSLIT:;
#ARTISTTRANSLIT:;
#CREDIT:;
#BANNER:I need you-logo.jpg;
#BACKGROUND:I need you.jpg;
#LYRICSPATH:;
#CDTITLE:Lan.png;
#MUSIC:I Need You.mp3;
#OFFSET:0.000;
#SAMPLESTART:100.000;
#SAMPLELENGTH:12.000;
#SELECTABLE:YES;
#BPMS:0.000=160.020;
#STOPS:;
#BGCHANGES:;
// cache tags:
#FIRSTBEAT:12.000;
#LASTBEAT:303.000;
#SONGFILENAME:Songs/lan sky/I Need You/I Need You.sm;
#HASMUSIC:1;
#HASBANNER:1;
#MUSICLENGTH:115.493;
// end cache tags

//---------------dance-single - 标准----------------
#NOTES:
     dance-single:
     标准:
     Hard:
     7:
     0.580,0.820,0.797,0.173,0.004,330.000,92.000,20.000,0.000,48.000:


0000
0000
0000
0000
,
0000
0000
0000
0000
,
0000
0000
0000
0000
,
1001
0010
0100
0001
0010
0000
1100
1100
,
0001
0010
0100
1000
0010
0000
0011
0011
,
1000
0001
1000
0001
0010
0000
0110
0110
,
0001
1000
0001
1000
0100
0000
0011
0011
,
1001
1000
0001
1110
,
0001
0010
0100
1000
,
0001
0000
1100
0002
,
1000
0100
0010
0100
1000
0100
0010
0003
,
1100
0010
0100
0001
,
1000
0001
1000
0001
,
0010
0000
0110
2000
,
0100
0000
0100
0000
0111
0000
0010
3000
,
0011
0010
0100
1000
0100
1000
0100
0000
,
0011
0010
0100
1000
0010
0100
1100
0000
,
0011
0001
0000
1100
0000
0010
0100
0010
,
0001
0010
0100
0010
0001
0000
0000
0000
,
0011
0010
0100
0010
0011
0000
0001
0001
,
0100
0001
0000
0000
0000
0000
0010
0100
,
0010
1000
0001
1011
0000
0001
0010
0100
,
1000
0000
0010
0001
0011
0000
0000
0000
,
0011
0010
0100
1000
0010
0100
0001
0000
,
1100
1100
0000
0000
0001
0100
1000
0010
,
0011
0000
0011
1100
,
0001
0000
0010
0000
0001
0000
0000
0000
0001
0000
0000
0000
1000
0100
1000
0000
,
0011
0000
0010
0000
0100
0000
1000
0010
,
0100
0001
1000
0011
0011
0000
0000
0000
,
0001
0010
0100
1000
0100
0010
0100
0010
,
0100
0001
0010
0100
0010
0100
0001
1000
,
0001
0001
1000
0001
,
0010
0100
1000
0010
,
0001
0010
0100
1000
,
2201
0000
0010
0000
0001
0000
0010
0000
0001
0000
0010
0000
0001
0000
0010
3300
,
0001
0010
0100
0010
,
0001
1000
0001
1000
,
2102
0000
0010
0000
0010
0000
0110
3003
,
1101
0000
0101
0000
,
1000
0010
0100
0001
,
0010
0100
0010
0001
,
1000
0001
1000
0001
,
1000
0000
1101
0000
,
1000
0100
1000
0010
,
0100
0010
0100
0010
,
1000
0001
1000
0001
,
0212
0000
0010
0000
0010
0000
0010
0000
1010
0000
1000
0000
1000
0000
1000
0303
,
0011
0011
0110
0110
,
1100
1100
0011
0011
,
0001
1000
0001
1000
,
2200
0000
0000
0000
0010
0000
0000
0000
0011
0000
0000
0000
0010
0000
0000
3300
,
0010
0100
0010
0001
,
0100
0010
0100
1001
,
2002
0000
0000
0000
0000
0003
0001
3000
,
1011
0000
1011
0000
,
0212
0010
0000
0000
,
1010
0000
0010
0000
,
1010
0000
0000
0000
0010
0000
0000
0303
0000
0000
0000
0000
0111
0000
0000
0000
,
1111
0000
1111
0000
,
2222
0000
0000
0000
,
0000
0000
0000
0000
,
0000
0000
3333
0011
,
1001
0000
1001
0000
,
2211
0000
0000
0000
0011
0000
0000
0000
0011
0000
0000
0000
0011
0000
0000
3300
,
1001
0001
0010
0100
,
1000
0010
0100
0001
,
0101
0000
1101
0000
,
1000
0010
0100
0001
,
0010
0100
0001
1000
,
0100
0010
0001
1100
,
0011
0000
0000
0000
1000
1000
1000
1111
,
1000
1000
1000
0000
0110
1001
1001
1001
,
1001
1001
0110
0000
1111
1000
1000
0100
,
0010
0001
1111
0000
1000
0100
0100
0011
,
0100
0100
1000
0000
0001
0001
0000
0000
,
0110
0110
1001
1001
1001
1001
1001
0000
;
